Autor Tema: DOCUMENTAL  (Leído 88 veces)

Bookmark and Share 0 Usuarios y 1 Visitante están viendo este tema.

Desconectado MaKa94

  • Newbie
  • *
  • Gracias
  • -Dadas: 4
  • -Recibidas: 53
  • Mensajes: 26
  • Sexo: Masculino
DOCUMENTAL
« en: Septiembre 03, 2022, 13:00:10 pm »
Hola a todos busco el documental, Colgar las alas de Iker Casillas, consta de 6 Episodios se estrenó en Movistar+ en 2020.
Lo estoy buscando en 1080i/p, en castellano.
Si alguien lo tiene o sabe de algun enlace se lo agradeceria.
Saludos.

Desconectado GUNS44

  • Administrator
  • Hero Member
  • *****
  • Gracias
  • -Dadas: 6838
  • -Recibidas: 8264
  • Mensajes: 5485
  • Sexo: Masculino
  • Goian bego, beti gogoan izango zaitugu!
Re:DOCUMENTAL
« Respuesta #1 en: Septiembre 05, 2022, 13:20:46 pm »
Aquí te muestro la información de codificación de un trailer perteneciente al primer capítulo del documental colgado en youtube por la plataforma Movistar+ en el 2020 y como se puede apreciar está en HD 720.

Código: [Seleccionar]
General
Format                      : MPEG-4
Format profile              : Base Media
Codec ID                    : isom (isom/iso2/avc1/mp41)
File size                   : 22.0 MiB
Duration                    : 4 min 34 s
Overall bit rate mode       : Variable
Overall bit rate            : 670 kb/s
Encoded date                : UTC 2020-12-20 01:34:27
Tagged date                 : UTC 2020-12-20 01:34:27

Video
ID                          : 1
Format                      : AVC
Format/Info                 : Advanced Video Codec
Format profile              : Main@L3.1
Format settings             : CABAC / 3 Ref Frames
Format settings, CABAC      : Yes
Format settings, Reference  : 3 frames
Codec ID                    : avc1
Codec ID/Info               : Advanced Video Coding
Duration                    : 4 min 34 s
Bit rate                    : 538 kb/s
Width                       : 1 280 pixels
Height                      : 720 pixels
Display aspect ratio        : 16:9
Frame rate mode             : Constant
Frame rate                  : 25.000 FPS
Color space                 : YUV
Chroma subsampling          : 4:2:0
Bit depth                   : 8 bits
Scan type                   : Progressive
Bits/(Pixel*Frame)          : 0.023
Stream size                 : 17.6 MiB (80%)
Title                       : ISO Media file produced by Google Inc.
Writing library             : x264 core 155 r2901 7d0ff22
Encoded date                : UTC 2020-12-20 01:34:27
Tagged date                 : UTC 2020-12-20 01:34:27
Color range                 : Limited
Color primaries             : BT.709
Transfer characteristics    : BT.709
Matrix coefficients         : BT.709
Codec configuration box     : avcC

Audio
ID                          : 2
Format                      : AAC LC
Format/Info                 : Advanced Audio Codec Low Complexity
Codec ID                    : mp4a-40-2
Duration                    : 4 min 34 s
Bit rate mode               : Variable
Bit rate                    : 128 kb/s
Channel(s)                  : 2 channels
Channel layout              : L R
Sampling rate               : 44.1 kHz
Frame rate                  : 43.066 FPS (1024 SPF)
Compression mode            : Lossy
Stream size                 : 4.19 MiB (19%)
Title                       : ISO Media file produced by Google Inc.
Language                    : English
Default                     : Yes
Alternate group             : 1
Encoded date                : UTC 2020-12-20 00:46:20
Tagged date                 : UTC 2020-12-20 00:46:20

Y aquí te muestro la información de codificación del primer capítulo que he podido rescatar de la red que como se puede apreciar está a la misma resolución: 1280x720 lo que corresponde a HD 720

Código: [Seleccionar]
General
Format                      : MPEG-4
Format profile              : Base Media
Codec ID                    : isom (isom/iso2/avc1/mp41)
File size                   : 295 MiB
Duration                    : 33 min 43 s
Overall bit rate mode       : Variable
Overall bit rate            : 1 224 kb/s
Writing application         : Lavf57.34.103

Video
ID                          : 1
Format                      : AVC
Format/Info                 : Advanced Video Codec
Format profile              : Baseline@L3.1
Format settings             : 1 Ref Frames
Format settings, CABAC      : No
Format settings, Reference  : 1 frame
Codec ID                    : avc1
Codec ID/Info               : Advanced Video Coding
Duration                    : 33 min 43 s
Bit rate                    : 1 135 kb/s
Width                       : 1 280 pixels
Height                      : 720 pixels
Display aspect ratio        : 16:9
Frame rate mode             : Constant
Frame rate                  : 25.000 FPS
Color space                 : YUV
Chroma subsampling          : 4:2:0
Bit depth                   : 8 bits
Scan type                   : Progressive
Bits/(Pixel*Frame)          : 0.049
Stream size                 : 274 MiB (93%)
Writing library             : Zencoder Video Encoding System
Codec configuration box     : avcC

Audio
ID                          : 2
Format                      : AAC LC
Format/Info                 : Advanced Audio Codec Low Complexity
Codec ID                    : mp4a-40-2
Duration                    : 33 min 43 s
Bit rate mode               : Variable
Bit rate                    : 83.5 kb/s
Maximum bit rate            : 98.2 kb/s
Channel(s)                  : 2 channels
Channel layout              : L R
Sampling rate               : 44.1 kHz
Frame rate                  : 43.066 FPS (1024 SPF)
Compression mode            : Lossy
Stream size                 : 20.1 MiB (7%)
Default                     : Yes
Alternate group             : 1

Si aún así estás interesad@ en conseguirlo aunque sea a menor resolución hazmelo saber en los comentarios.
Un saludo
GUNS77

Desconectado MaKa94

  • Newbie
  • *
  • Gracias
  • -Dadas: 4
  • -Recibidas: 53
  • Mensajes: 26
  • Sexo: Masculino
Re:DOCUMENTAL
« Respuesta #2 en: Septiembre 10, 2022, 22:04:58 pm »
Hola GUNS44, muchas gracias por el interes mostrado, pero lo buscoo en 1080, un saludo.

 

MEGA HA VACIADO DE GOLPE MUCHAS DE NUESTRAS CUENTAS

ASÍ QUE TENDREMOS QUE RESUBIR LOS CONTENIDOS AL TIEMPO QUE SUBIMOS NUEVOS APORTES.

MIENTRAS DURE ESTA SITUACION ROGAMOS PACIENCIA Y BUENOS MODALES

ESTAMOS HACIENDO LO QUE PODEMOS


Este sitio se mantiene online gracias a la publicidad.